10bitt的3D影片要如何轉成2D的? [論壇 - Ubuntu 影音及遊戲]


正在瀏覽:   1 名遊客


 到底部   前一個主題   下一個主題  [無發表權] 請登錄或者註冊

(1) 2 »


10bitt的3D影片要如何轉成2D的?
會員二級
註冊日期:
2012/11/29 11:03
所屬群組:
已註冊使用者
等級: 7
HP : 0 / 158
MP : 23 / 3045
EXP: 34
離線
近日不小心載了一部3D的影片,要如何轉成2D?
以看過http://www.ubuntu-tw.org/modules/newbb/viewtopic.php?topic_id=65080&viewmode=flat&order=ASC&type=&mode=0&start=0
但還是不了解

2013/5/11 2:44
應用擴展 工具箱
回覆: 10bitt的3D影片要如何轉成2D的?
管理員
註冊日期:
2011/3/11 6:32
所屬群組:
討論區管理群
等級: 44
HP : 216 / 1084
MP : 1088 / 26283
EXP: 38
離線
an860627 寫到:
近日不小心載了一部3D的影片,要如何轉成2D?
以看過http://www.ubuntu-tw.org/modules/newbb/viewtopic.php?topic_id=65080&viewmode=flat&order=ASC&type=&mode=0&start=0
但還是不了解

您確定您的影片真的是 3D 影片?
您可以安裝 mediainfo-gui 軟體然後用 Mediainfo 開啟該檔案察看其編碼資訊

2013/5/11 2:57
本篇發表文章以「創用CC BY 3.0 或更新之台灣地區版本」授權條款釋出,如何使用敬請參考
 Creative Commons — 姓名標示 3.0 台灣 — CC BY 3.0 TW
 http://creativecommons.org/licenses/by/3.0/tw/

「你不懂的東西就不要亂講,被懂得人看破手腳就算了,騙不懂的人誤導別人,還要別人把你當成大師,這就真的是說不過去了。」
 by Allen Own
 出處 http://www.plurk.com/p/i4uogm

自由知識創作平台介紹
 https://docs.google.com/document/d/1MGG6lW_0qCgH4U785R-IwSc_INdoBGej1l-JxiA4gPE
如何建立新的自由知識創作平台文件
 https://docs.google.com/document/d/11NdzOW2lGYksfyQIcPMPye5tlmj1J0QTkgPTmQvIvKA
應用擴展 工具箱
回覆: 10bitt的3D影片要如何轉成2D的?
會員二級
註冊日期:
2012/11/29 11:03
所屬群組:
已註冊使用者
等級: 7
HP : 0 / 158
MP : 23 / 3045
EXP: 34
離線
是the amazing spiderman 3D,不過是mkv檔

2013/5/11 3:04
應用擴展 工具箱
回覆: 10bitt的3D影片要如何轉成2D的?
管理員
註冊日期:
2011/3/11 6:32
所屬群組:
討論區管理群
等級: 44
HP : 216 / 1084
MP : 1088 / 26283
EXP: 38
離線
an860627 寫到:
是the amazing spiderman 3D,不過是mkv檔


將影片檔案用 mediainfo-gui 打開,選取 view->text 檢視模式,然後將文字框中的內容貼上來

2013/5/11 3:10
本篇發表文章以「創用CC BY 3.0 或更新之台灣地區版本」授權條款釋出,如何使用敬請參考
 Creative Commons — 姓名標示 3.0 台灣 — CC BY 3.0 TW
 http://creativecommons.org/licenses/by/3.0/tw/

「你不懂的東西就不要亂講,被懂得人看破手腳就算了,騙不懂的人誤導別人,還要別人把你當成大師,這就真的是說不過去了。」
 by Allen Own
 出處 http://www.plurk.com/p/i4uogm

自由知識創作平台介紹
 https://docs.google.com/document/d/1MGG6lW_0qCgH4U785R-IwSc_INdoBGej1l-JxiA4gPE
如何建立新的自由知識創作平台文件
 https://docs.google.com/document/d/11NdzOW2lGYksfyQIcPMPye5tlmj1J0QTkgPTmQvIvKA
應用擴展 工具箱
回覆: 10bitt的3D影片要如何轉成2D的?
會員二級
註冊日期:
2012/11/29 11:03
所屬群組:
已註冊使用者
等級: 7
HP : 0 / 158
MP : 23 / 3045
EXP: 34
離線
打錯了,是8bit的
General
Unique ID : 206940255466271042914406289446912224040 (0x9BAF3E540F861D6D99C7E05517796B28)
Complete name : /home/anthony/data/好了/The.Amazing.Spider-Man.2012.1080p.BluRay.3D.H-SBS.DTS.x264-PublicHD/the.amazing.spider-man.2012.1080p.bluray.3D.h-sbs.dts.x264-publichd.mkv
Format : Matroska
Format version : Version 2
File size : 13.8 GiB
Duration : 2h 16mn
Overall bit rate : 14.5 Mbps
Encoded date : UTC 2012-10-25 20:32:01
Writing application : mkvmerge v5.8.0 ('No Sleep / Pillow') built on Sep 2 2012 15:37:04
Writing library : libebml v1.2.3 + libmatroska v1.3.0

Video
ID : 1
Format : AVC
Format/Info : Advanced Video Codec
Format profile : High@L4.1
Format settings, CABAC : Yes
Format settings, ReFrames : 2 frames
Codec ID : V_MPEG4/ISO/AVC
Duration : 2h 16mn
Bit rate : 12.6 Mbps
Width : 1 920 pixels
Height : 1 080 pixels
Display aspect ratio : 16:9
Frame rate : 23.976 fps
Color space : YUV
Chroma subsampling : 4:2:0
Bit depth : 8 bits
Scan type : Progressive
Bits/(Pixel*Frame) : 0.253
Stream size : 12.0 GiB (86%)
Writing library : x264 core
Language : English
Default : Yes
Forced : No
Color primaries : BT.709-5, BT.1361, IEC 61966-2-4, SMPTE RP177
Transfer characteristics : BT.709-5, BT.1361
Matrix coefficients : BT.709-5, BT.1361, IEC 61966-2-4 709, SMPTE RP177

Audio #1
ID : 2
Format : DTS
Format/Info : Digital Theater Systems
Codec ID : A_DTS
Duration : 2h 16mn
Bit rate mode : Constant
Bit rate : 1 510 Kbps
Channel(s) : 6 channels
Channel positions : Front: L C R, Side: L R, LFE
Sampling rate : 48.0 KHz
Bit depth : 24 bits
Compression mode : Lossy
Stream size : 1.44 GiB (10%)
Language : English
Default : Yes
Forced : No

Audio #2
ID : 3
Format : AC-3
Format/Info : Audio Coding 3
Format profile : Dolby Digital
Mode extension : CM (complete main)
Codec ID : A_AC3
Duration : 2h 16mn
Bit rate mode : Constant
Bit rate : 192 Kbps
Channel(s) : 2 channels
Channel positions : Front: L R
Sampling rate : 48.0 KHz
Bit depth : 16 bits
Compression mode : Lossy
Stream size : 187 MiB (1%)
Language : English
Default : No
Forced : No

Menu
00:00:00.000 : en:00:00:00.000
00:07:45.924 : en:00:07:45.924
00:14:39.670 : en:00:14:39.670
00:22:57.543 : en:00:22:57.543
00:32:58.226 : en:00:32:58.226
00:41:25.066 : en:00:41:25.066
00:48:42.503 : en:00:48:42.503
00:55:10.933 : en:00:55:10.933
01:03:17.293 : en:01:03:17.293
01:12:29.011 : en:01:12:29.011
01:17:51.750 : en:01:17:51.750
01:24:38.949 : en:01:24:38.949
01:34:04.556 : en:01:34:04.556
01:42:59.548 : en:01:42:59.548
01:52:16.355 : en:01:52:16.355
02:00:52.912 : en:02:00:52.912

2013/5/11 3:12
應用擴展 工具箱
回覆: 10bitt的3D影片要如何轉成2D的?
管理員
註冊日期:
2011/3/11 6:32
所屬群組:
討論區管理群
等級: 44
HP : 216 / 1084
MP : 1088 / 26283
EXP: 38
離線
an860627 寫到:
Video
ID : 1
Format : AVC
Format/Info : Advanced Video Codec
Format profile : High@L4.1

這個影片似乎是純 2D 影片
3D MVC 影片是用 Stereo High profile,但這個影片不是(High)
所以應該是原片源是 3D ,但是轉檔的時候只轉錄其中一個 view 所以出來的還是 2D 影片

參考資料
Reference data
-------------------
Multiview Video Coding - Wikipedia, the free encyclopedia
http://en.wikipedia.org/wiki/Multiview_Video_Coding

2013/5/11 3:49
本篇發表文章以「創用CC BY 3.0 或更新之台灣地區版本」授權條款釋出,如何使用敬請參考
 Creative Commons — 姓名標示 3.0 台灣 — CC BY 3.0 TW
 http://creativecommons.org/licenses/by/3.0/tw/

「你不懂的東西就不要亂講,被懂得人看破手腳就算了,騙不懂的人誤導別人,還要別人把你當成大師,這就真的是說不過去了。」
 by Allen Own
 出處 http://www.plurk.com/p/i4uogm

自由知識創作平台介紹
 https://docs.google.com/document/d/1MGG6lW_0qCgH4U785R-IwSc_INdoBGej1l-JxiA4gPE
如何建立新的自由知識創作平台文件
 https://docs.google.com/document/d/11NdzOW2lGYksfyQIcPMPye5tlmj1J0QTkgPTmQvIvKA
應用擴展 工具箱
回覆: 10bitt的3D影片要如何轉成2D的?
會員二級
註冊日期:
2012/11/29 11:03
所屬群組:
已註冊使用者
等級: 7
HP : 0 / 158
MP : 23 / 3045
EXP: 34
離線
可是它變成兩個畫面並列

2013/5/11 4:16
應用擴展 工具箱
回覆: 10bitt的3D影片要如何轉成2D的?
管理員
註冊日期:
2011/3/11 6:32
所屬群組:
討論區管理群
等級: 44
HP : 216 / 1084
MP : 1088 / 26283
EXP: 38
離線
an860627 寫到:
可是它變成兩個畫面並列

說不定是為了讓支援的 3D 螢幕能將雙 view 並列的畫面自動轉換成真 3D 畫面才這樣做的吧?(Youtube 的 真 3D 影片也可以這樣顯示)
這樣就的確是真 3D 影片了,不過實際上是轉錄成兩個 2D 畫面並在一起用純 2D 的方式編碼
至於要轉換成 2D 應該是直接將一半的畫面捨棄掉就能辦到,不知道有沒有軟體可以辦到就是了

2013/5/11 5:59
本篇發表文章以「創用CC BY 3.0 或更新之台灣地區版本」授權條款釋出,如何使用敬請參考
 Creative Commons — 姓名標示 3.0 台灣 — CC BY 3.0 TW
 http://creativecommons.org/licenses/by/3.0/tw/

「你不懂的東西就不要亂講,被懂得人看破手腳就算了,騙不懂的人誤導別人,還要別人把你當成大師,這就真的是說不過去了。」
 by Allen Own
 出處 http://www.plurk.com/p/i4uogm

自由知識創作平台介紹
 https://docs.google.com/document/d/1MGG6lW_0qCgH4U785R-IwSc_INdoBGej1l-JxiA4gPE
如何建立新的自由知識創作平台文件
 https://docs.google.com/document/d/11NdzOW2lGYksfyQIcPMPye5tlmj1J0QTkgPTmQvIvKA
應用擴展 工具箱
回覆: 10bitt的3D影片要如何轉成2D的?
會員二級
註冊日期:
2012/11/29 11:03
所屬群組:
已註冊使用者
等級: 7
HP : 0 / 158
MP : 23 / 3045
EXP: 34
離線
我有找到一個網址,可是不懂,可以請大大幫忙嗎?
http://forums.creativecow.net/thread/291/697

2013/5/12 2:14
應用擴展 工具箱
回覆: 10bitt的3D影片要如何轉成2D的?
管理員
註冊日期:
2011/3/11 6:32
所屬群組:
討論區管理群
等級: 44
HP : 216 / 1084
MP : 1088 / 26283
EXP: 38
離線
an860627 寫到:
我有找到一個網址,可是不懂,可以請大大幫忙嗎?
http://forums.creativecow.net/thread/291/697

就是單純將一半的畫面切掉呀

2013/5/12 2:43
本篇發表文章以「創用CC BY 3.0 或更新之台灣地區版本」授權條款釋出,如何使用敬請參考
 Creative Commons — 姓名標示 3.0 台灣 — CC BY 3.0 TW
 http://creativecommons.org/licenses/by/3.0/tw/

「你不懂的東西就不要亂講,被懂得人看破手腳就算了,騙不懂的人誤導別人,還要別人把你當成大師,這就真的是說不過去了。」
 by Allen Own
 出處 http://www.plurk.com/p/i4uogm

自由知識創作平台介紹
 https://docs.google.com/document/d/1MGG6lW_0qCgH4U785R-IwSc_INdoBGej1l-JxiA4gPE
如何建立新的自由知識創作平台文件
 https://docs.google.com/document/d/11NdzOW2lGYksfyQIcPMPye5tlmj1J0QTkgPTmQvIvKA
應用擴展 工具箱

(1) 2 »

 [無發表權] 請登錄或者註冊


可以查看帖子.
不可發帖.
不可回覆.
不可編輯自己的帖子.
不可刪除自己的帖子.
不可發起投票調查.
不可在投票調查中投票.
不可上傳附件.
不可不經審核直接發帖.